Jump to content

Welcome to Warez Box V2
Register now to gain access to all of our features. Once registered and logged in, you will be able to create topics, post replies to existing threads, give reputation to your fellow members, get your own private messenger, post status updates, manage your profile and so much more. If you already have an account, login here - otherwise create an account for free today!
Foto

Mission.Impossible.Fallout.2018.1080p.KORSUB.HDRip.x264.AAC2.0-STUTTERSHIT



  • Please log in to reply
5 respostas neste tópico

#1
GonzoHD

GonzoHD
  • Grupo:
    Moderadores Globais
  • Tópicos
    711
  • Posts:
    815
Fã Desde:
06-janeiro 15
Membro nº:
17474
Reputação:
201
Avisos:
0
  • País: País
  • Clube: Clube
  • Não Digo

Humor actual: Yee Haw
Mission.Impossible.Fallout.2018.1080p.KORSUB.HDRip.x264.AAC2.0-STUTTERSHIT

MV5BMTk3NDY5MTU0NV5BMl5BanBnXkFtZTgwNDI3

:imdb:



:info:

Video
ID : 1
Format : AVC
Format/Info : Advanced Video Codec
Format profile : High@L4.1
Format settings : CABAC / 4 Ref Frames
Format settings, CABAC : Yes
Format settings, ReFrames : 4 frames
Codec ID : avc1
Codec ID/Info : Advanced Video Coding
Duration : 2 h 27 min
Bit rate : 6 500 kb/s
Width : 1 920 pixels
Height : 800 pixels
Display aspect ratio : 2.40:1
Frame rate mode : Constant
Frame rate : 29.970 (30000/1001) FPS
Color space : YUV
Chroma subsampling : 4:2:0
Bit depth : 8 bits
Scan type : Progressive
Bits/(Pixel*Frame) : 0.141
Stream size : 6.63 GiB (96%)
Title : Mission.Impossible.Fallout.2018.1080p.KORSUB.HDRip.x264.AAC2.0-STUTTERSHIT
Writing library : x264 core 148 r2795M aaa9aa8
Encoding settings : cabac=1 / ref=4 / deblock=1:0:0 / analyse=0x3:0x113 / me=umh / subme=9 / psy=1 / psy_rd=1.00:0.00 / mixed_ref=1 / me_range=16 / chroma_me=1 / trellis=2 / 8x8dct=1 / cqm=0 / deadzone=21,11 / fast_pskip=1 / chroma_qp_offset=-2 / threads=40 / lookahead_threads=3 / sliced_threads=0 / nr=0 / decimate=1 / interlaced=0 / bluray_compat=0 / constrained_intra=0 / bframes=3 / b_pyramid=2 / b_adapt=2 / b_bias=0 / direct=3 / weightb=1 / open_gop=0 / weightp=2 / keyint=250 / keyint_min=25 / scenecut=40 / intra_refresh=0 / rc_lookahead=50 / rc=abr / mbtree=1 / bitrate=6500 / ratetol=1.0 / qcomp=0.60 / qpmin=0 / qpmax=69 / qpstep=4 / ip_ratio=1.40 / aq=1:1.00

Audio
ID : 2
Format : AAC
Format/Info : Advanced Audio Codec
Format profile : LC
Codec ID : mp4a-40-2
Duration : 2 h 27 min
Bit rate mode : Constant
Bit rate : 256 kb/s
Channel(s) : 2 channels
Channel positions : Front: L R
Sampling rate : 48.0 kHz
Frame rate : 46.875 FPS (1024 SPF)
Compression mode : Lossy
Stream size : 270 MiB (4%)
Title : Mission.Impossible.Fallout.2018.1080p.KORSUB.HDRip.x264.AAC2.0-STUTTERSHIT
Language : English
Default : Yes
Alternate group : 1

:elenco:

Tom Cruise , Henry Cavill , Ving Rhames , Simon Pegg , Rebecca Ferguson , Sean Harris , Angela Bassett , Vanessa Kirby , Michelle Monaghan ,
Wes Bentley , Frederick Schmidt , Alec Baldwin , Liang Yang , Kristoffer Joner , Wolf Blitzer

:sinopse:

Ethan Hunt and his IMF team| along with some familiar allies| race against time after a mission gone wrong.

:screenshots:

54436737352382816483.png
14425202662365208613.png


:trailer:



:download:

:multiup:

Conteudo Escondido

47605.gif
 


#2
moskamorta

moskamorta
  • Grupo:
    Membros
  • Tópicos
    0
  • Posts:
    190
Fã Desde:
24-junho 16
Membro nº:
28854
Reputação:
73
Avisos:
0
  • País: País
  • Clube: Clube
  • Masculino
  • Local: Brazil

Humor actual: Não defenido

obrigado.



#3
jony75

jony75
  • Grupo:
    Membros
  • Tópicos
    0
  • Posts:
    161
Fã Desde:
03-maro 16
Membro nº:
27421
Reputação:
16
Avisos:
0
  • País: País

Humor actual: Não defenido

obrigado



#4
todosunidos10

todosunidos10
  • Grupo:
    Membros
  • Tópicos
    0
  • Posts:
    22
Fã Desde:
16-abril 16
Membro nº:
28625
Reputação:
5
Avisos:
0
  • País: País

Humor actual: Não defenido

Obrigado



#5
Ronin

Ronin
  • Grupo:
    Membros
  • Tópicos
    0
  • Posts:
    57
Fã Desde:
04-dezembro 15
Membro nº:
24598
Reputação:
32
Avisos:
0
  • País: País

Humor actual: Não defenido

Obrigado!



#6
ca783mau

ca783mau
  • Grupo:
    Membros
  • Tópicos
    0
  • Posts:
    232
Fã Desde:
01-julho 17
Membro nº:
30608
Reputação:
163
Avisos:
0
  • País: País

Humor actual: Não defenido

thank you




Voltar a HD/BRRip/BDRip
[MultiUp] Invision-Romania