Jump to content

Foto

Era.Uma.Vez.O.Corpo.Humano.DVDRIP.PT-PT.[XXXTEAM]



  • Please log in to reply
4 respostas neste tópico

#1
Cobra

Cobra
  • Título: Trabalhador
  • Grupo: Administradores
  • Membro n°: 12637
  • Respostas: 9.024
  • Reputação: 5.952
  • Tópicos: 4.817
  • Fãn Desde: 04 Jun 2014
  • País: País
  • Clube: Clube
  • Masculino
  • Local: Numa cruzada contra a exploração!

Humor actual: Sneaky

...:::Prémios:::...

        

Era.Uma.Vez.O.Corpo.Humano.DVDRIP.PT-PT.[XXXTEAM]

expvz2Y.jpg

:imdb:



:info:

Release: Era.Uma.Vez.O.Corpo.Humano.DVDRIP.PT-PT.[XXXTEAM]
Video
ID : 0
Format : MPEG-4 Visual
Format profile : Advanced Simple@L5
Format settings, BVOP : No
Format settings, QPel : No
Format settings, GMC : No warppoints
Format settings, Matrix : Default (MPEG)
Codec ID : XVID
Codec ID/Hint : XviD
Bit rate : 781 kb/s
Width : 512 pixels
Height : 384 pixels
Display aspect ratio : 4:3
Frame rate : 25.000 FPS
Color space : YUV
Chroma subsampling : 4:2:0
Bit depth : 8 bits
Scan type : Progressive
Compression mode : Lossy
Bits/(Pixel*Frame) : 0.159
Stream size : 146 MiB (85%)
Writing library : XviD 1.0.3 (UTC 2004-12-20)

Audio
ID : 1
Format : MPEG Audio
Format version : Version 1
Format profile : Layer 3
Mode : Joint stereo
Mode extension : MS Stereo
Codec ID : 55
Codec ID/Hint : MP3
Bit rate mode : Variable
Bit rate : 128 kb/s
Channel(s) : 2 channels
Sampling rate : 48.0 kHz
Compression mode : Lossy
Stream size : 23.1 MiB (13%)
Alignment : Aligned on interleaves
Interleave, duration : 24 ms (0.60 video frame)
Interleave, preload duration : 489 ms
Writing library : LAME3.92
Encoding settings : -m j -V 4 -q 2 -lowpass 17.5 --abr 128

Size: 4.4 Gb (180 MiB/Ep.)

Language: :pt:

:sinopse:

A colecção Era uma vez o Corpo Humano, é composta por 26 episódios que permitem explorar o corpo humano.
O nosso organismo é muito complexo, muito mais do que parece à primeira vista. Conhecer este organismo e saber o que se esconde “debaixo da pele” significa conhecermos-nos a nós próprios.

Com O Corpo Humano, seus filhos poderão estudar e aprender de uma forma alegre e muito divertida. A obra foi desenvolvida por prestigiados médicos e pedagogos, tendo por isso grande rigor científico e reconhecido valor didáctico transformando qualquer dúvida numa empolgante descoberta.
Uma colecção muito divertida para aprenderes como és por dentro e por fora!

A partir de agora, o corpo humano não terá segredos para ti!

Com a colecção Era uma Vez o Corpo Humano as crianças aprenderão como funcionam por dentro de forma fácil e muito divertida!

O nosso organismo é muito complexo, muito mais do que parece à primeira vista. Conhecer este organismo e saber o que se esconde “debaixo da pele” significa conhecermo-nos a nós próprios.

Era uma vez o Corpo Humano vai ser o tema guia nesta viagem fascinante, conduzindo-te pouco a pouco à descoberta deste mundo maravilhoso sempre em actividade.

:: EPiSÓDiOS ::

01. Os Músculos | 02. A respiração | 03. A digestão | 04. O Coração | 05. O Esqueleto | 06. A Medula Óssea | 07. O Ouvido | 08. A Vista | 09. A Origem da Vida |
10. O Nascimento | 11. O Sistema Imunitário | 12. Guerra às Toxinas | 13. As Hormonas | 14. A Cadeia da Vida | 15. A Vacina | 16. O Sistema Linfático |
17. A Irrigação Sanguínea | 18. A Boca e os Dentes | 19. O Cérebro | 20. A Idade do Homem | 21. As Plaquetas | 22. Os Neurónios |
23. A Vida e o Sonho | 24. O Fígado | 25. Os Rins | 26. A Pele

:trailer:



:download:

:multiup:

Conteudo Escondido


:wb:

 


  • taberneiro e nunofbcastro gostaram disto

6zlemVn.png?1j6wNeuZ.png

1UQQyjk.png

s7XFi9U.gif


#2
nunofbcastro

nunofbcastro
  • Grupo: Membros
  • Membro n°: 28971
  • Respostas: 34
  • Reputação: 23
  • Tópicos: 0
  • Fãn Desde: 17 Jul 2016
  • País: País

Humor actual: Não defenido
obrigada

#3
miguel26

miguel26
  • Grupo: Membros
  • Membro n°: 32133
  • Respostas: 220
  • Reputação: 105
  • Tópicos: 0
  • Fãn Desde: 28 Jan 2018
  • País: País

Humor actual: Não defenido

Obrigado



#4
luiseduardoalmeida

luiseduardoalmeida
  • Grupo: Membros
  • Membro n°: 23924
  • Respostas: 139
  • Reputação: 78
  • Tópicos: 0
  • Fãn Desde: 29 Out 2015
  • País: País

Humor actual: Não defenido

obrigado

 



#5
onlysongsandmusic

onlysongsandmusic
  • Grupo: Membros
  • Membro n°: 31632
  • Respostas: 13
  • Reputação: 7
  • Tópicos: 0
  • Fãn Desde: 01 Nov 2017
  • País: País

Humor actual: Não defenido

Obrigada